正文

2022最新纯净版共助2:国际/机密同盟2 WEB-MP4/1080P 中字采用远鉴字幕组译文
影视

凡心的仙人
凡心的仙人

◎译  名 共助2:国际 / 机密同盟2(台) / 共助2:国际化 / 秘密任务2:International (港) / Confidential Assignment 2: International / Confidential Assignment 2

◎片  名 공조2:인터내셔날

◎年  代 2022

◎产  地 韩国

◎类  别 动作

◎语  言 韩语

◎上映日期 2022-09-07(韩国)

◎IMDb链接 https://www.imdb.com/title/tt21867370

◎豆瓣评分 8.0/10 (653人评价)

◎豆瓣链接 https://movie.douban.com/subject/35240874

◎片  长 128分钟

◎导  演 梨晳勳 Seok-hoon Lee (id:1319566)

◎编  剧 梨晳勳 Seok-hoon Lee (id:1319566)

◎演  员 玄彬 Hyun Bin (id:1028380)

柳海真 Hae-jin Yu (id:1312810)

林允儿 Yoona (id:1275439)

丹尼尔·海尼 Daniel Henney (id:1036460)

陈善圭 Seon-kyu Jin (id:1382194)

林成宰 Sungjae Im (id:1444305)

郑允荷 Jung Yun-Ha (id:1478009)

◎简  介

为了追捕藏匿在韩国的国际犯罪组织,北韩刑警任铁零(玄彬 饰)投入新的共同搜查任务。而韩国刑警姜镇泰(柳海真 饰)则在搜查中因发生失误而被调至网络搜查队,为了回到广域搜查队,镇泰自愿担任铁零的伙伴。再次遇见铁零的敏英(林允儿 饰)又重燃对他的爱意。然而,铁哲与镇泰对彼此心存怀疑,但仍展开十分像样的搜查行动。就在他们终于找到犯罪组织首脑张明俊(陈善圭 饰)的藏身之处时,来自美国的FBI探员杰克(丹尼尔·海尼 饰)突然出现在他们面前,依旧令人辛酸的韩国刑警;一样杰出的北韩刑警;来自FBI的美国刑警,因各自的目的而团结一心的他们,将展开刺激的共同搜查行动。

General

Complete name : G:\共助2:国际.Confidential.Assignment.2.International.2022.1080P.WEB-DL.H264.AAC-Vampire.mp4

Format : MPEG-4

Format profile : Base Media

Codec ID : isom (isom/iso2/avc1/mp41)

File size : 4.83 GiB

Duration : 2 h 8 min

Overall bit rate mode : Variable

Overall bit rate : 5 387 kb/s

Movie name : 共助2:国际.Confidential.Assignment.2.International

Album : 韩国电影系列

Performer : Vampire制作分享

Composer : 远鉴字幕组原创翻译

Genre : 韩国

Recorded date : 2022

Cover : Yes

Comment : 警告:严禁将本人制作的任何作品用于商业性质活动,所有制作作品仅限于测试宽带之用,请于下载后24小时内删除。本人不承担任何法律后果!喜欢本作品请购买正版!!!

Video

ID : 1

Format : AVC

Format/Info : Advanced Video Codec

Format profile : [email protected]

Format settings : CABAC / 3 Ref Frames

Format settings, CABAC : Yes

Format settings, Reference : 3 frames

Codec ID : avc1

Codec ID/Info : Advanced Video Coding

Duration : 2 h 8 min

Bit rate mode : Variable

Bit rate : 4 995 kb/s

Maximum bit rate : 15.0 Mb/s

Width : 1 920 pixels

Height : 1 080 pixels

Display aspect ratio : 16:9

Frame rate mode : Constant

Frame rate : 23.976 (24000/1001) FPS

Color space : YUV

Chroma subsampling : 4:2:0

Bit depth : 8 bits

Scan type : Progressive

Bits/(Pixel*Frame) : 0.100

Stream size : 4.48 GiB (93%)

Codec configuration box : avcC

Audio

ID : 2

Format : AAC LC

Format/Info : Advanced Audio Codec Low Complexity

Codec ID : mp4a-40-2

Duration : 2 h 8 min

Bit rate mode : Constant

Bit rate : 384 kb/s

Channel(s) : 2 channels

Channel layout : L R

Sampling rate : 48.0 kHz

Frame rate : 46.875 FPS (1024 SPF)

Compression mode : Lossy

Stream size : 353 MiB (7%)

Default : Yes

共助 공조

点开黑条幕

邀请你加入阿里云盘达人招募计划,参与享最高50TB容量、延期卡等福利 ------------ 点此链接报名参加
https://pages.aliyundrive.com/mobile-page/web/signup.html?code=3ffe319



最新回复
又看电影喽
又看电影喽
20个月前

2 的翻译 不灵机😇


凡心的仙人
凡心的仙人
12个月前


共助 공조(总合集)

共助2:国际 WEB-1080p洗版星卫台配
https://www.aliyundrive.com/s/9f6LzxFGgqf


凡心的仙人
凡心的仙人
12个月前

预告 台配音轨


凡心的仙人
夸克最新资源腾讯文档
扫右边二维码查看
持续更新,建议收藏

notice
好家当 已经汇聚上万T网友分享的资源,如果主贴和回复里的链接失效,请尝试在站内搜索框搜索

更多最新资源,扫描右侧二维码
关注微信公众号
“老胡为你服务”
✌✌实现看片自由
声明:
本站所有资源均由网友自发提供,本站不缓存、储存、下载、播放等,所列内容仅做学习和带宽测试,请于保存后24小时内自行删除。 如有侵权请根据内容页信息自行联系 阿里云盘官方网站 进行处理。