正文

家庭顶梁柱 | 1080p原盘remux(国英双语)DTS-MD英语音轨 + 国语AC3杜比音轨
影视

凡心的仙人
凡心的仙人

导演: 诺拉·托梅
编剧: 安妮塔·多兰 / 黛博拉·伊莉丝
主演: 莎拉·乔德利 / 索玛·查亚 / 诺林·古拉姆高斯 / 拉腊·萨迪克 / 阿里·巴德沙阿 / 更多...
类型: 剧情 / 动画 / 家庭
官方网站: www.thebreadwinner.com
制片国家/地区: 爱尔兰 / 加拿大 / 卢森堡 / 美国 / 英国 / 法国
语言: 英语
上映日期: 2019-01-11(中国大陆) / 2017-09-08(多伦多电影节) / 2018-05-25(爱尔兰)
片长: 94分钟
又名: 持家小木兰(港) / 战火下的小花(台) / 养家的人 / 一家之主
IMDb: tt3901826
豆瓣评分
8.3
133572人评价
5星33.0%
4星52.0%
3星14.0%
2星1.0%
1星0.1%
好于 91% 动画片
好于 92% 家庭片
养家之人的剧情简介 · · · · · ·
塔利班残酷统治下的阿富汗,平民百姓尤其是女性过着水深火热犹如地狱一般的生活。倔强的小女孩帕瓦娜(莎拉·乔德利 Saara Chaudry 配音)随父亲(Ali Rizvi Badshah 配音)外出挣钱养家,不仅目睹了父亲被昔日的学生辱骂羞辱,更和家人目击了父亲遭到非法逮捕的一幕。家中有病弱的母亲、成年的姐姐以及嗷嗷待哺的弟弟,年幼的帕瓦娜只能剪去秀发,伪装成男孩走出家门,踏上生死未卜的养家之路。在此过程中,她遇到了同样扮成男孩的昔日伙伴,也与一名沉默魁梧的塔利班分子成为朋友。当战争的阴影再度逼近时,帕瓦娜想方设法要找到下落不明的父亲,将他带回家中……
本片根据黛博拉·艾里斯的同名小说改编。 ©豆瓣

「养家之人 1080p原盘REMUX(国英双语)」 https://www.aliyundrive.com/s/RLFgNkF4ErC
General
Unique ID : 212183382776809593271809924761304546730 (0x9FA10876900EE6CED4278250E8D5BDAA)
Complete name : D:\音轨制作\养家之人音轨\The Breadwinner.mkv
Format : Matroska
Format version : Version 4
File size : 22.3 GiB
Duration : 1 h 33 min
Overall bit rate mode : Variable
Overall bit rate : 34.1 Mb/s
Movie name : The Breadwinner
Encoded date : UTC 2023-07-29 13:18:53
Writing application : mkvmerge v51.0.0 ('I Wish') 64-bit
Writing library : libebml v1.4.0 + libmatroska v1.6.2
Cover : Yes
Attachments : cover.jpg / cronospro.otf / 华文楷体.TTF

Video
ID : 1
Format : AVC
Format/Info : Advanced Video Codec
Format profile : High@L4.1
Format settings : CABAC / 4 Ref Frames
Format settings, CABAC : Yes
Format settings, Reference fra : 4 frames
Codec ID : V_MPEG4/ISO/AVC
Duration : 1 h 33 min
Bit rate mode : Variable
Bit rate : 26.6 Mb/s
Maximum bit rate : 31.0 Mb/s
Width : 1 920 pixels
Height : 1 080 pixels
Display aspect ratio : 16:9
Frame rate mode : Constant
Frame rate : 23.976 (23976/1000) FPS
Original frame rate : 23.976 (24000/1001) FPS
Color space : YUV
Chroma subsampling : 4:2:0
Bit depth : 8 bits
Scan type : Progressive
Bits/(Pixel*Frame) : 0.536
Stream size : 17.4 GiB (78%)
Default : Yes
Forced : No

Audio #1
ID : 2
ID in the original source medi : 4352 (0x1100)
Format : DTS XLL
Format/Info : Digital Theater Systems
Commercial name : DTS-HD Master Audio
Codec ID : A_DTS
Duration : 1 h 33 min
Bit rate mode : Variable
Bit rate : 3 720 kb/s
Channel(s) : 6 channels
Channel layout : C L R Ls Rs LFE
Sampling rate : 48.0 kHz
Frame rate : 93.750 FPS (512 SPF)
Bit depth : 24 bits
Compression mode : Lossless
Stream size : 2.43 GiB (11%)
Title : DTS-HD MA 5.1
Language : English
Default : Yes
Forced : No
Original source medium : Blu-ray

Audio #2
ID : 3
ID in the original source medi : 4353 (0x1101)
Format : DTS XLL
Format/Info : Digital Theater Systems
Commercial name : DTS-HD Master Audio
Codec ID : A_DTS
Duration : 1 h 33 min
Bit rate mode : Variable
Bit rate : 2 838 kb/s
Channel(s) : 6 channels
Channel layout : C L R Ls Rs LFE
Sampling rate : 48.0 kHz
Frame rate : 93.750 FPS (512 SPF)
Bit depth : 24 bits
Compression mode : Lossless
Stream size : 1.85 GiB (8%)
Title : DTS-HD MA 5.1
Language : English
Default : No
Forced : No
Original source medium : Blu-ray

Audio #3
ID : 4
Format : AC-3
Format/Info : Audio Coding 3
Commercial name : Dolby Digital
Codec ID : A_AC3
Duration : 1 h 33 min
Bit rate mode : Constant
Bit rate : 448 kb/s
Channel(s) : 6 channels
Channel layout : L R C LFE Ls Rs
Sampling rate : 48.0 kHz
Frame rate : 31.250 FPS (1536 SPF)
Compression mode : Lossy
Stream size : 299 MiB (1%)
Title : 国语
Language : Chinese
Service kind : Complete Main
Default : No
Forced : No

Audio #4
ID : 5
Format : AC-3
Format/Info : Audio Coding 3
Commercial name : Dolby Digital
Codec ID : A_AC3
Duration : 1 h 33 min
Bit rate mode : Constant
Bit rate : 448 kb/s
Channel(s) : 6 channels
Channel layout : L R C LFE Ls Rs
Sampling rate : 48.0 kHz
Frame rate : 31.250 FPS (1536 SPF)
Compression mode : Lossy
Stream size : 299 MiB (1%)
Title : 英语
Language : English
Service kind : Complete Main
Default : No
Forced : No

Text
ID : 6
Format : ASS
Codec ID : S_TEXT/ASS
Codec ID/Info : Advanced Sub Station Alpha
Duration : 1 h 25 min
Bit rate : 99 b/s
Count of elements : 1239
Compression mode : Lossless
Stream size : 61.7 KiB (0%)
Title : 国配字幕
Language : Chinese
Default : Yes
Forced : No

Menu
00:00:00.000 : en:第 01 章
00:05:33.958 : en:第 02 章
00:10:59.825 : en:第 03 章
00:15:44.610 : en:第 04 章
00:20:48.538 : en:第 05 章
00:25:10.509 : en:第 06 章
00:30:49.597 : en:第 07 章
00:35:16.906 : en:第 08 章
00:40:06.946 : en:第 09 章
00:45:13.961 : en:第 10 章
00:50:01.248 : en:第 11 章
00:55:13.018 : en:第 12 章
01:00:17.280 : en:第 13 章
01:06:06.879 : en:第 14 章
01:10:09.747 : en:第 15 章
01:15:29.525 : en:第 16 章
01:20:17.020 : en:第 17 章
01:25:54.149 : en:第 18 章

邀请你加入阿里云盘达人招募计划,参与享最高50TB容量、延期卡等福利 ------------ 点此链接报名参加
https://pages.aliyundrive.com/mobile-page/web/signup.html?code=3ffe319



最新回复
凡心的仙人
夸克最新资源腾讯文档
扫右边二维码查看
持续更新,建议收藏

notice
好家当 已经汇聚上万T网友分享的资源,如果主贴和回复里的链接失效,请尝试在站内搜索框搜索

更多最新资源,扫描右侧二维码
关注微信公众号
“老胡为你服务”
✌✌实现看片自由
声明:
本站所有资源均由网友自发提供,本站不缓存、储存、下载、播放等,所列内容仅做学习和带宽测试,请于保存后24小时内自行删除。 如有侵权请根据内容页信息自行联系 阿里云盘官方网站 进行处理。